压制上传在B站是否还有意义



  • 前些天下载了一个HQ文件 前前后后用了三款软件进行上传 分别是Handbrake、MediaCoder、小丸工具箱(FFmpeg).

    所使用的视频参数基本上都是5900Kbps / high / 2pass / level 5.1 / Placbo

    中途发现很多压制教程用MC的时候都会动GOP这项,然后自己也弄了个MC,结果上传后还是被压。

    用Bilibili的网页脚本分段下载了自己上传的文件,然后合并起来,在MediaInfo中却显示Level 4.0,总码率也从5900降低到5500kbps左右 音频几乎没有变化
    123.png

    最后换回小丸工具箱压5900kbps也是一样的结果,码率还是被降了。

    预先压制的视频上传几乎都会被降低码率,是压制的方式不对,还是现在已经没有办法能防止二压了。



  • 可能是你的峰值码率或者音频码率超了,我这里防二压都是好使的,可以尝试把码率再降低一点点,比如5850 5800,可以把上传的视频信息也贴出来吗?



  • Enough Vegas HB Render1-1.mp4
    容器:MPEG-4
    总码率:6 125 Kbps
    大小:30.6 MiB
    时长:41s 959ms

    视频(1):AVC
    码率:5 900 Kbps
    大小:29.7 MiB (97%)
    分辨率:1920x1080
    宽高比:16:9(1.778)
    帧率:24.000 fps
    位深度:8 bits
    像素宽高比:1.000
    编码库:x264 - core 157 r2969 d4099dd
    Profile:High@L5.1
    编码时间:
    总帧数:1005

    音频(2):AAC
    大小:963 KiB (3%)
    码率:188 Kbps
    采样率:44.1 KHz
    声道数:2

    ====详细信息====
    ID : 1
    Format : AVC
    Format/Info : Advanced Video Codec
    Format profile : High@L5.1
    Format settings, CABAC : Yes
    Format settings, ReFrames : 16 frames
    Codec ID : avc1
    Codec ID/Info : Advanced Video Coding
    Duration : 41s 875ms
    Bit rate : 5 900 Kbps
    Width : 1 920 pixels
    Height : 1 080 pixels
    Display aspect ratio : 16:9
    Frame rate mode : Constant
    Frame rate : 24.000 fps
    Color space : YUV
    Chroma subsampling : 4:2:0
    Bit depth : 8 bits
    Scan type : Progressive
    Bits/(Pixel*Frame) : 0.119
    Stream size : 29.7 MiB (97%)
    Writing library : x264 core 157 r2969 d4099dd
    Encoding settings : cabac=1 / ref=16 / deblock=1:0:0 / analyse=0x3:0x133 / me=tesa / subme=11 / psy=1 / psy_rd=1.00:0.00 / mixed_ref=1 / me_range=24 / chroma_me=1 / trellis=2 / 8x8dct=1 / cqm=0 / deadzone=21,11 / fast_pskip=0 / chroma_qp_offset=-2 / threads=10 / lookahead_threads=2 / sliced_threads=0 / nr=0 / decimate=1 / interlaced=0 / bluray_compat=0 / constrained_intra=0 / bframes=16 / b_pyramid=2 / b_adapt=2 / b_bias=0 / direct=3 / weightb=1 / open_gop=0 / weightp=2 / keyint=600 / keyint_min=1 / scenecut=40 / intra_refresh=0 / rc_lookahead=60 / rc=2pass / mbtree=1 / bitrate=5900 / ratetol=1.0 / qcomp=0.60 / qpmin=0 / qpmax=69 / qpstep=4 / cplxblur=20.0 / qblur=0.5 / vbv_maxrate=23000 / vbv_bufsize=2950 / nal_hrd=none / filler=0 / ip_ratio=1.40 / aq=1:1.00

    ID : 2
    Format : AAC
    Format/Info : Advanced Audio Codec
    Format profile : LC
    Codec ID : 40
    Duration : 41s 959ms
    Bit rate mode : Constant
    Bit rate : 188 Kbps
    Channel(s) : 2 channels
    Channel positions : Front: L R
    Sampling rate : 44.1 KHz
    Compression mode : Lossy
    Stream size : 963 KiB (3%)



  • 看不出来峰值码率,这样吧,你用这个工具可以看出来码率的情况
    如果峰值没有超过24000kbps的话你就把录制码率再压低一些,比如5800,少100kbps没多大关系

    https://c-t.work/s/fb78677654964b



  • 0.png
    峰值码率没超 只能试试再降低些码率了



  • @Purp1e 平均码率改为5750已经成功过了,下载来的视频信息没有任何改变,谢谢!


Log in to reply